返回列表 发新帖

[动作片] 疾速备战 John.Wick.Chapter.3.Parabellum.2019.BDRip.1080p.MegaPeer-qqss 7.51 GiB

[复制链接]

5万

主题

5万

帖子

19万

积分

实习版主

Rank: 7Rank: 7Rank: 7

积分
193139

论坛元老

发表于 2019-9-21 13:58:44 | 显示全部楼层 | 阅读模式


◎译  名 疾速备战/疾速追杀3/疾速逃亡/极速追杀:第三章/约翰·威克3/杀神3(港)/捍卫任务3:全面开战(台)  
◎片  名 John Wick: Chapter 3 - Parabellum/John Wick 3 / Alpha Cop / John Wick: Chapter 3 / John Wick 3: Parabellum
◎年  代 2019
◎国  家 美国
◎类  别 动作/犯罪/惊悚  
◎语  言 英语
◎IMDb评分 8.0/10 from 104,198 users
◎IMDB链接 https://www.imdb.com/title/tt6146586/
◎片  长 2 h 10 min
◎导  演 查德·斯塔赫斯基 Chad Stahelski
◎主  演 基努·里维斯 Keanu Reeves
       哈莉·贝瑞 Halle Berry
       劳伦斯·菲什伯恩 Laurence Fishburne
       安杰丽卡·休斯顿 Anjelica Huston


◎简  介 

  因杀害杀手组织“高桌”(High Table)成员,约翰·威克被对方以1400万奖金悬赏追杀。全纽约的杀手蜂拥而至。
  1. [/font]
  2. [font=Tahoma, &quot]Общее[/font]
  3. [font=Tahoma, &quot]Уникальный идентификатор : 228746980975456624083485326249743005447 (0xAC1710E7A975FA72A01031946786B707)[/font]
  4. [font=Tahoma, &quot]Полное имя : H:John.Wick.Chapter.3.Parabellum.(2019).BDRip-1080p.MegaPeer.(qqss44).mkv[/font]
  5. [font=Tahoma, &quot]Формат : Matroska[/font]
  6. [font=Tahoma, &quot]Версия формата : Version 2[/font]
  7. [font=Tahoma, &quot]Размер файла : 7,51 Гбайт[/font]
  8. [font=Tahoma, &quot]Продолжительность : 2 ч. 10 м.[/font]
  9. [font=Tahoma, &quot]Общий поток : 8224 Кбит/сек[/font]
  10. [font=Tahoma, &quot]Название фильма : John.Wick.Chapter.3.Parabellum.(2019).BDRip-1080p.MegaPeer.(qqss44)[/font]
  11. [font=Tahoma, &quot]Дата кодирования : UTC 2019-09-20 11:13:28[/font]
  12. [font=Tahoma, &quot]Программа кодирования : mkvmerge v7.8.0 ('River Man') 32bit built on Apr 3 2015 12:11:22[/font]
  13. [font=Tahoma, &quot]Библиотека кодирования : libebml v1.3.1 + libmatroska v1.4.2[/font]

  14. [font=Tahoma, &quot]Видео[/font]
  15. [font=Tahoma, &quot]Идентификатор : 1[/font]
  16. [font=Tahoma, &quot]Формат : AVC[/font]
  17. [font=Tahoma, &quot]Формат/Информация : Advanced Video Codec[/font]
  18. [font=Tahoma, &quot]Профиль формата : [email]High@L4.1[/email][/font]
  19. [font=Tahoma, &quot]Параметр CABAC формата : Да[/font]
  20. [font=Tahoma, &quot]Параметр ReFrames формата : 5 кадров[/font]
  21. [font=Tahoma, &quot]Идентификатор кодека : V_MPEG4/ISO/AVC[/font]
  22. [font=Tahoma, &quot]Продолжительность : 2 ч. 10 м.[/font]
  23. [font=Tahoma, &quot]Битрейт : 7840 Кбит/сек[/font]
  24. [font=Tahoma, &quot]Ширина : 1920 пикселей[/font]
  25. [font=Tahoma, &quot]Высота : 800 пикселей[/font]
  26. [font=Tahoma, &quot]Соотношение сторон : 2,40:1[/font]
  27. [font=Tahoma, &quot]Режим частоты кадров : Постоянный[/font]
  28. [font=Tahoma, &quot]Частота кадров : 23,976 (24000/1001) кадра/сек[/font]
  29. [font=Tahoma, &quot]Цветовое пространство : YUV[/font]
  30. [font=Tahoma, &quot]Субдискретизация насыщенности : 4:2:0[/font]
  31. [font=Tahoma, &quot]Битовая глубина : 8 бит[/font]
  32. [font=Tahoma, &quot]Тип развёртки : Прогрессивная[/font]
  33. [font=Tahoma, &quot]Бит/(Пиксели*Кадры) : 0.213[/font]
  34. [font=Tahoma, &quot]Размер потока : 7,01 Гбайт (93%)[/font]
  35. [font=Tahoma, &quot]Библиотека кодирования : x264 core 152 r2851 ba24899[/font]
  36. [font=Tahoma, &quot]Настройки программы : cabac=1 / ref=5 / deblock=1:-3:-3 / analyse=0x3:0x113 / me=umh / subme=11 / psy=1 / psy_rd=1.00:0.00 / mixed_ref=1 / me_range=32 / chroma_me=1 / trellis=2 / 8x8dct=1 / cqm=0 / deadzone=21,11 / fast_pskip=0 / chroma_qp_offset=-2 / threads=12 / lookahead_threads=2 / sliced_threads=0 / nr=0 / decimate=0 / interlaced=0 / bluray_compat=0 / constrained_intra=0 / bframes=9 / b_pyramid=2 / b_adapt=2 / b_bias=0 / direct=3 / weightb=1 / open_gop=0 / weightp=2 / keyint=250 / keyint_min=23 / scenecut=40 / intra_refresh=0 / rc_lookahead=40 / rc=2pass / mbtree=0 / bitrate=7840 / ratetol=1.0 / qcomp=0.70 / qpmin=0 / qpmax=69 / qpstep=4 / cplxblur=20.0 / qblur=0.5 / vbv_maxrate=50000 / vbv_bufsize=62500 / nal_hrd=none / filler=0 / ip_ratio=1.40 / pb_ratio=1.30 / aq=3:0.70[/font]
  37. [font=Tahoma, &quot]Язык : English[/font]
  38. [font=Tahoma, &quot]Default : Да[/font]
  39. [font=Tahoma, &quot]Forced : Нет[/font]

  40. [font=Tahoma, &quot]Аудио[/font]
  41. [font=Tahoma, &quot]Идентификатор : 2[/font]
  42. [font=Tahoma, &quot]Формат : AC-3[/font]
  43. [font=Tahoma, &quot]Формат/Информация : Audio Coding 3[/font]
  44. [font=Tahoma, &quot]Расширение режима : CM (complete main)[/font]
  45. [font=Tahoma, &quot]Параметр Endianness формата : Big[/font]
  46. [font=Tahoma, &quot]Идентификатор кодека : A_AC3[/font]
  47. [font=Tahoma, &quot]Продолжительность : 2 ч. 10 м.[/font]
  48. [font=Tahoma, &quot]Вид битрейта : Постоянный[/font]
  49. [font=Tahoma, &quot]Битрейт : 384 Кбит/сек[/font]
  50. [font=Tahoma, &quot]Каналы : 6 каналов[/font]
  51. [font=Tahoma, &quot]Расположение каналов : Front: L C R, Side: L R, LFE[/font]
  52. [font=Tahoma, &quot]Частота : 48,0 КГц[/font]
  53. [font=Tahoma, &quot]Частота кадров : 31,250 кадров/сек (1536 spf)[/font]
  54. [font=Tahoma, &quot]Метод сжатия : С потерями[/font]
  55. [font=Tahoma, &quot]Размер потока : 359 Мбайт (5%)[/font]
  56. [font=Tahoma, &quot]Язык : Russian[/font]
  57. [font=Tahoma, &quot]Default : Да[/font]
  58. [font=Tahoma, &quot]Forced : Нет[/font]

  59. [font=Tahoma, &quot]Текст #1[/font]
  60. [font=Tahoma, &quot]Идентификатор : 3[/font]
  61. [font=Tahoma, &quot]Формат : UTF-8[/font]
  62. [font=Tahoma, &quot]Идентификатор кодека : S_TEXT/UTF8[/font]
  63. [font=Tahoma, &quot]Идентификатор кодека/Информация : UTF-8 Plain Text[/font]
  64. [font=Tahoma, &quot]Заголовок : FORCED[/font]
  65. [font=Tahoma, &quot]Язык : Russian[/font]
  66. [font=Tahoma, &quot]Default : Да[/font]
  67. [font=Tahoma, &quot]Forced : Нет[/font]

  68. [font=Tahoma, &quot]Текст #2[/font]
  69. [font=Tahoma, &quot]Идентификатор : 4[/font]
  70. [font=Tahoma, &quot]Формат : UTF-8[/font]
  71. [font=Tahoma, &quot]Идентификатор кодека : S_TEXT/UTF8[/font]
  72. [font=Tahoma, &quot]Идентификатор кодека/Информация : UTF-8 Plain Text[/font]
  73. [font=Tahoma, &quot]Заголовок : FULL[/font]
  74. [font=Tahoma, &quot]Язык : Russian[/font]
  75. [font=Tahoma, &quot]Default : Нет[/font]
  76. [font=Tahoma, &quot]Forced : Нет[/font]

  77. [font=Tahoma, &quot]Меню[/font]
  78. [font=Tahoma, &quot]00:00:00.000 : en:Chapter 01[/font]
  79. [font=Tahoma, &quot]00:08:46.860 : en:Chapter 02[/font]
  80. [font=Tahoma, &quot]00:14:06.763 : en:Chapter 03[/font]
  81. [font=Tahoma, &quot]00:22:40.401 : en:Chapter 04[/font]
  82. [font=Tahoma, &quot]00:31:26.301 : en:Chapter 05[/font]
  83. [font=Tahoma, &quot]00:37:51.311 : en:Chapter 06[/font]
  84. [font=Tahoma, &quot]00:47:43.319 : en:Chapter 07[/font]
  85. [font=Tahoma, &quot]00:57:09.176 : en:Chapter 08[/font]
  86. [font=Tahoma, &quot]01:02:56.439 : en:Chapter 09[/font]
  87. [font=Tahoma, &quot]01:14:27.671 : en:Chapter 10[/font]
  88. [font=Tahoma, &quot]01:20:36.665 : en:Chapter 11[/font]
  89. [font=Tahoma, &quot]01:28:48.365 : en:Chapter 12[/font]
  90. [font=Tahoma, &quot]01:33:51.793 : en:Chapter 13[/font]
  91. [font=Tahoma, &quot]01:41:31.794 : en:Chapter 14[/font]
  92. [font=Tahoma, &quot]01:53:44.651 : en:Chapter 15[/font]
  93. [font=Tahoma, &quot]01:59:51.434 : en:Chapter 16[/font]
  94. [font=Tahoma, &quot]
复制代码

點擊進入下載
回复

使用道具 举报

发表回复

您需要登录后才可以回帖 登录 | 立即注册

本版积分规则

快速回复 返回顶部 返回列表